Login
Username:
Password:
[Signup]
[Recover Account]


Browse Torrents

Poll


You must be logged in to view polls



Latest Torrents
FryDay (2018) Hind...
- [Size: 1.15 GB]

Doing.Money.2018.H...
- [Size: 1.26 GB]

Family.Guy.S17E09....
- [Size: 381.71 MB]

Doing.Money.2018.H...
- [Size: 1.26 GB]

Family.Guy.S17E09....
- [Size: 234.33 MB]


Torrent Details For "The Nun (2018) 1080p BluRay x264 Dual Audio [Hindi - English] DD5.1- ESUB ~ Ranvijay"

The Nun (2018) 1080p BluRay x264 Dual Audio [Hindi - English] DD5.1- ESUB ~ Ranvijay

Download this torrent | Magnet Download
Health:
Seeds: 11
Leechers: 39
Completed: 22 
Last Checked: 07-12-2018 13:00:41
External Torrent
Update Stats



Images Host

Poster


iMDB
Title: The Nun
Year: 2018
Runtime: 96 minutes
Language: English
All Genres: Horror, Mystery, Thriller
Tagline: Witness the Darkest Chapter in The Conjuring Universe
Director: Corin Hardy
Writing By: Gary Dauberman,James Wan,Gary Dauberman,
Produced By: Richard Brener,Michael Clear,Gary Dauberman,Walter Hamada,Dave Neustadter,Hans Ritter,Peter Safran,James Wan,Todd Williams,
Music: Abel Korzeniowski
Cast:
Demián Bichir as Father Burke
Taissa Farmiga as Sister Irene
Jonas Bloquet as Frenchie
Bonnie Aarons as The Nun
Ingrid Bisu as Sister Oana
Charlotte Hope as Sister Victoria
Sandra Teles as Sister Ruth
August Maturo as Daniel
Jack Falk as Daniel
Lynnette Gaza as Mother Superior
Trailers:
Teaser Trailer


Watch-Free-HD     Download

Details
Name:The Nun (2018) 1080p BluRay x264 Dual Audio [Hindi - English] DD5.1- ESUB ~ Ranvijay
Description:






 

The Nun (2018) 1080p BluRay x264 Dual Audio [Hindi - English] DD5.1- ESUB ~ Ranvijay

Buy RDP Online

 


Format                                   : Matroska
Format version                           : Version 4 / Version 2
File size                                : 3.44 GiB
Duration                                 : 1 h 36 min
Overall bit rate                         : 5 097 kb/s
Movie name                               : The Nun (2018) 1080p BluRay x264 Dual Audio [Hindi - English] DD5.1- ESUB ~ Ranvijay

Video
ID                                       : 1
Format                                   : AVC
Format/Info                              : Advanced Video Codec
Duration                                 : 1 h 36 min
Bit rate                                 : 4 000 kb/s
Width                                    : 1 920 pixels
Height                                   : 800 pixels
Display aspect ratio                     : 2.40:1
Frame rate mode                          : Constant
Frame rate                               : 23.976 (24000/1001) FPS
Color space                              : YUV
Chroma subsampling                       : 4:2:0
Bit depth                                : 8 bits
Scan type                                : Progressive
Bits/(Pixel*Frame)                       : 0.109
Stream size                              : 2.70 GiB (78%)
Title                                    : ~Ranvijay~

Audio #1
ID                                       : 2
Format                                   : AC-3
Format/Info                              : Audio Coding 3
Codec ID                                 : A_AC3
Duration                                 : 1 h 36 min
Bit rate mode                            : Constant
Bit rate                                 : 640 kb/s
Channel(s)                               : 6 channels
Channel positions                        : Front: L C R, Side: L R, LFE
Sampling rate                            : 48.0 kHz
Frame rate                               : 31.250 FPS (1536 SPF)
Bit depth                                : 16 bits
Compression mode                         : Lossy
Stream size                              : 442 MiB (13%)
Title                                    : ~Ranvijay~
Language                                 : Hindi
Service kind                             : Complete Main
Default                                  : Yes
Forced                                   : Yes

Audio #2
ID                                       : 3
Format                                   : AC-3
Format/Info                              : Audio Coding 3
Codec ID                                 : A_AC3
Duration                                 : 1 h 36 min
Bit rate mode                            : Constant
Bit rate                                 : 448 kb/s
Channel(s)                               : 6 channels
Channel positions                        : Front: L C R, Side: L R, LFE
Sampling rate                            : 48.0 kHz
Frame rate                               : 31.250 FPS (1536 SPF)
Bit depth                                : 16 bits
Compression mode                         : Lossy
Stream size                              : 309 MiB (9%)
Title                                    : ~Ranvijay~
Service kind                             : Complete Main
Default                                  : No
Forced                                   : No

Text
ID                                       : 4
Format                                   : PGS
Muxing mode                              : zlib
Codec ID                                 : S_HDMV/PGS
Codec ID/Info                            : Picture based subtitle format used on BDs/HD-DVDs
Duration                                 : 1 h 35 min
Bit rate                                 : 25.5 kb/s
Count of elements                        : 1885
Stream size                              : 17.4 MiB (0%)
Title                                    : ~Ranvijay~
Language                                 : English
Default                                  : Yes
Forced                                   : Yes

Menu
00:00:00.000                             : en:00:00:00.000
00:08:42.772                             : en:00:08:42.772
00:17:55.074                             : en:00:17:55.074
00:29:17.505                             : en:00:29:17.505
00:38:05.032                             : en:00:38:05.032
00:48:49.800                             : en:00:48:49.800
00:58:49.192                             : en:00:58:49.192
01:09:16.944                             : en:01:09:16.944
01:18:14.564                             : en:01:18:14.564
01:24:18.636                             : en:01:24:18.636
01:32:30.293                             : en:01:32:30.293


 
 
 
 
 
 
 
 


Don't walk as you are king, walk as you don't care who the king is....!!

 [/b]

Category:Movies > Hollywood Dub
Lang:Hindi
Total Size:3.46 GB
Info Hash:37e64c88b5b59cf4baf2535d92962e21932e5458
Added By:ranvijay1234
Date Added:07-12-2018 06:39:59
Downloads:117

Ratings:Not Yet Rated (Log in to rate it)


Tracker:
udp://tracker.pirateparty.gr:6969/announce

This Torrent also has backup trackers
URLSeedersLeechersCompleted
http://tracker.fastdownload.xyz:443/announce000
http://seeders-paradise.org:443/announce000
http://share.camoe.cn:8080/announce000


File List: 


Comments

No comments still posted

Top
Copyright 2018 DownloadHD -|- Page Generated In 2.753926 secs.
-|- RSS Feed -|- Feed Info