Login
Username:
Password:
[Signup]
[Recover Account]


Browse Torrents

Poll


You must be logged in to view polls



Latest Torrents
FryDay (2018) Hind...
- [Size: 1.15 GB]

Doing.Money.2018.H...
- [Size: 1.26 GB]

Family.Guy.S17E09....
- [Size: 381.71 MB]

Doing.Money.2018.H...
- [Size: 1.26 GB]

Family.Guy.S17E09....
- [Size: 234.33 MB]


Torrent Details For "The Nun 2018 1080p BluRay x264 Dual Audio [Hindi DD 5.1 - English DTS] ESub [MW]"

The Nun 2018 1080p BluRay x264 Dual Audio [Hindi DD 5.1 - English DTS] ESub [MW]

Download this torrent | Magnet Download
Health:
Seeds: 147
Leechers: 87
Completed: 645 
Last Checked: 08-12-2018 04:06:14
External Torrent
Update Stats



Images Host

Poster
No poster


Watch-Free-HD     Download

Details
Name:The Nun 2018 1080p BluRay x264 Dual Audio [Hindi DD 5.1 - English DTS] ESub [MW]
Description:

 


General
Format                                   : Matroska
Format version                           : Version 4 / Version 2
File size                                : 2.96 GiB
Duration                                 : 1 h 36 min
Overall bit rate                         : 4 386 kb/s

Video
ID                                       : 1
Format                                   : AVC
Format/Info                              : Advanced Video Codec
Format profile                           : [email protected]
Format settings                          : CABAC / 4 Ref Frames
Format settings, CABAC                   : Yes
Format settings, RefFrames               : 4 frames
Codec ID                                 : V_MPEG4/ISO/AVC
Duration                                 : 1 h 36 min
Bit rate                                 : 3 000 kb/s
Width                                    : 1 920 pixels
Height                                   : 800 pixels
Display aspect ratio                     : 2.40:1
Frame rate mode                          : Constant
Frame rate                               : 23.976 (24000/1001) FPS
Color space                              : YUV
Chroma subsampling                       : 4:2:0
Bit depth                                : 8 bits
Scan type                                : Progressive
Bits/(Pixel*Frame)                       : 0.081
Stream size                              : 2.01 GiB (68%)
Writing library                          : x264 core 155 r2901 7d0ff22
Default                                  : Yes
Forced                                   : No

Audio #1
ID                                       : 2
Format                                   : AC-3
Format/Info                              : Audio Coding 3
Codec ID                                 : A_AC3
Duration                                 : 1 h 36 min
Bit rate mode                            : Constant
Bit rate                                 : 640 kb/s
Channel(s)                               : 6 channels
Channel positions                        : Front: L C R, Side: L R, LFE
Sampling rate                            : 48.0 kHz
Frame rate                               : 31.250 FPS (1536 SPF)
Bit depth                                : 16 bits
Compression mode                         : Lossy
Stream size                              : 442 MiB (15%)
Language                                 : Hindi
Service kind                             : Complete Main
Default                                  : Yes
Forced                                   : Yes

Audio #2
ID                                       : 3
Format                                   : DTS
Format/Info                              : Digital Theater Systems
Codec ID                                 : A_DTS
Duration                                 : 1 h 36 min
Bit rate mode                            : Constant
Bit rate                                 : 756 kb/s
Channel(s)                               : 6 channels
Channel positions                        : Front: L C R, Side: L R, LFE
Sampling rate                            : 48.0 kHz
Frame rate                               : 93.750 FPS (512 SPF)
Bit depth                                : 16 bits
Compression mode                         : Lossy
Stream size                              : 522 MiB (17%)
Language                                 : English
Default                                  : No
Forced                                   : No

Text #1
ID                                       : 4
Format                                   : UTF-8
Codec ID                                 : S_TEXT/UTF8
Codec ID/Info                            : UTF-8 Plain Text
Duration                                 : 1 h 35 min
Bit rate                                 : 38 b/s
Count of elements                        : 941
Stream size                              : 27.0 KiB (0%)
Language                                 : English
Default                                  : Yes
Forced                                   : No

Text #2
ID                                       : 5
Format                                   : VobSub
Muxing mode                              : zlib
Codec ID                                 : S_VOBSUB
Codec ID/Info                            : Picture based subtitle format used on DVDs
Duration                                 : 1 h 35 min
Bit rate                                 : 3 884 b/s
Count of elements                        : 942
Stream size                              : 2.66 MiB (0%)
Language                                 : English
Default                                  : No
Forced                                   : No

Menu
00:00:00.000                             : en:00:00:00.000
00:08:42.772                             : en:00:08:42.772
00:17:55.074                             : en:00:17:55.074
00:29:17.506                             : en:00:29:17.506
00:38:05.033                             : en:00:38:05.033
00:48:49.802                             : en:00:48:49.802
00:58:49.192                             : en:00:58:49.192
01:09:16.944                             : en:01:09:16.944
01:18:14.565                             : en:01:18:14.565
01:24:18.637                             : en:01:24:18.637
01:32:30.295                             : en:01:32:30.295


Click To View Image

 http://pichub.site/image/cAq06
 http://pichub.site/image/cB4Ft
 http://pichub.site/image/cBJd4
 http://pichub.site/image/cBMup
 http://pichub.site/image/cBY3y
 http://pichub.site/image/cBIab

Category:Movies > Hollywood Dub
Lang:Hindi
Total Size:2.96 GB
Info Hash:73018fb7aa338fab0fbbbb4344c14b983702fefc
Added By:Freaky
Date Added:07-12-2018 07:55:49
Downloads:117

Ratings:Not Yet Rated (Log in to rate it)


Tracker:
udp://tracker.coppersurfer.tk:6969/announce


File List: 


Comments

No comments still posted

Top
Copyright 2018 DownloadHD -|- Page Generated In 0.318235 secs.
-|- RSS Feed -|- Feed Info