Login
Username:
Password:
[Signup]
[Recover Account]


Browse Torrents

Poll


You must be logged in to view polls



Latest Torrents
Tanked.S15E08.A.Me...
- [Size: 346.56 MB]

The.Protector.2018...
- [Size: 13.79 GB]

Gold.Rush.S09E10.7...
- [Size: 1.42 GB]

Fresh.Off.the.Boat...
- [Size: 109.73 MB]

Gold.Rush.S09E10.W...
- [Size: 505.13 MB]


Torrent Details For "Forgotten.2017.KOREAN.1080p.BluRay.REMUX.AVC.DTS-HD.MA.5.1-FGT"

Forgotten.2017.KOREAN.1080p.BluRay.REMUX.AVC.DTS-HD.MA.5.1-FGT

Download this torrent | Magnet Download
Health:
Seeds: 2
Leechers: 104
Completed: 54 
Last Checked: 07-12-2018 13:20:47
External Torrent
Update Stats



Images Host

Poster


iMDB
Original Title: Gi-eok-ui bam
Title: Forgotten
Year: 2017
Runtime: 108 minutes
Votes: 5330
Rating: 7.3/10
Language: Korean
Director: Hang-jun Zhang
Writing By: Hang-jun Zhang,
Produced By: Won-seok Jang,Joon-Shik Park,
Cast:
Ha-Neul Kang as Jin-seok
Mu-Yeol Kim as Yoo-seok
Seong-kun Mun as
Young-hee Na as


Watch-Free-HD     Download

Details
Name:Forgotten.2017.KOREAN.1080p.BluRay.REMUX.AVC.DTS-HD.MA.5.1-FGT
Description:

Video
ID : 1
Format : AVC
Format/Info : Advanced Video Codec
Format profile : [email protected]
Format settings : CABAC / 4 Ref Frames
Format settings, CABAC : Yes
Format settings, ReFrames : 4 frames
Codec ID : V_MPEG4/ISO/AVC
Duration : 1 h 48 min
Bit rate mode : Variable
Bit rate : 28.9 Mb/s
Maximum bit rate : 35.0 Mb/s
Width : 1 920 pixels
Height : 1 080 pixels
Display aspect ratio : 16:9
Frame rate mode : Constant
Frame rate : 23.976 (24000/1001) FPS
Standard : NTSC
Color space : YUV
Chroma subsampling : 4:2:0
Bit depth : 8 bits
Scan type : Progressive
Bits/(Pixel*Frame) : 0.581
Stream size : 21.9 GiB (86%)
Title : Forgotten.2017.KOREAN.1080p.BluRay.REMUX.AVC.DTS-HD.MA.5.1-FGT
Language : English
Default : No
Forced : No
Color range : Limited
Color primaries : BT.709
Transfer characteristics : BT.709
Matrix coefficients : BT.709

Audio #1
ID : 2
Format : DTS XLL
Format/Info : Digital Theater Systems
Commercial name : DTS-HD Master Audio
Codec ID : A_DTS
Duration : 1 h 48 min
Bit rate mode : Variable
Bit rate : 2 529 kb/s
Channel(s) : 6 channels
Channel layout : C L R Ls Rs LFE
Sampling rate : 48.0 kHz
Frame rate : 93.750 FPS (512 SPF)
Bit depth : 24 bits
Compression mode : Lossless
Stream size : 1.92 GiB (8%)
Title : Forgotten.2017.KOREAN.1080p.BluRay.REMUX.AVC.DTS-HD.MA.5.1-FGT
Language : Korean
Default : Yes
Forced : No

Audio #2
ID : 3
Format : DTS
Format/Info : Digital Theater Systems
Codec ID : A_DTS
Duration : 1 h 48 min
Bit rate mode : Constant
Bit rate : 1 509 kb/s
Channel(s) : 6 channels
Channel layout : C L R Ls Rs LFE
Sampling rate : 48.0 kHz
Frame rate : 93.750 FPS (512 SPF)
Bit depth : 24 bits
Compression mode : Lossy
Stream size : 1.14 GiB (4%)
Title : Forgotten.2017.KOREAN.1080p.BluRay.REMUX.AVC.DTS-HD.MA.5.1-FGT
Language : Korean
Default : No
Forced : No


 http://imagecurl.com/viewer.p...9097978661032725.png


 http://imagecurl.com/viewer.p...7277533202879760.png


 http://imagecurl.com/viewer.p...0275704.png[/center]
Category:Movies > Remux
Lang:Korean
Total Size:25.56 GB
Info Hash:7498457ca65f5543a53438f1d656f79ca957b1bb
Added By:Scene
Date Added:07-12-2018 12:25:24
Downloads:25

Ratings:Not Yet Rated (Log in to rate it)


Tracker:
http://tracker.trackerfix.com:80/announce


File List: 


Comments

No comments still posted

Top
Copyright 2018 DownloadHD -|- Page Generated In 0.199420 secs.
-|- RSS Feed -|- Feed Info