Login
Username:
Password:
[Signup]
[Recover Account]


Browse Torrents

Poll


You must be logged in to view polls



Latest Torrents
FryDay (2018) Hind...
- [Size: 1.15 GB]

Doing.Money.2018.H...
- [Size: 1.26 GB]

Family.Guy.S17E09....
- [Size: 381.71 MB]

Doing.Money.2018.H...
- [Size: 1.26 GB]

Family.Guy.S17E09....
- [Size: 234.33 MB]


Torrent Details For "Be.with.You.2018.KOREAN.1080p.BluRay.REMUX.AVC.DTS-HD.MA.5.1-FGT"

Be.with.You.2018.KOREAN.1080p.BluRay.REMUX.AVC.DTS-HD.MA.5.1-FGT

Download this torrent | Magnet Download
Health:
Seeds: 2
Leechers: 174
Completed: 70 
Last Checked: 07-12-2018 13:18:56
External Torrent
Update Stats



Images Host

Poster


iMDB
Title: Be with You
Year: 2018
Runtime: 132 minutes
Votes: 1352
Rating: 7.6/10
Language: Korean
Director: Jang-Hoon Lee
Writing By: Takuji Ichikawa,Su-jin Kang,Jang-Hoon Lee,
Cast:
Ji-seob So as Woo-jin
Ye-jin Son as Soo-ah
Yoo-ram Bae as Hong-goo (young)
Hyeon-soo Kim as Soo-ah (young)
Chang-Seok Ko as Hong-goo
Jun Hyeok Lee as Choi
Seo-Joon Park as Ji-ho (adult)
Jeong Yeon Seo as
Yeo-Eun Son as Hyun-jung
Lee You-Jin as Woo-jin (young)


Watch-Free-HD     Download

Details
Name:Be.with.You.2018.KOREAN.1080p.BluRay.REMUX.AVC.DTS-HD.MA.5.1-FGT
Description:

Video
ID : 1
Format : AVC
Format/Info : Advanced Video Codec
Format profile : [email protected]
Format settings : CABAC / 4 Ref Frames
Format settings, CABAC : Yes
Format settings, ReFrames : 4 frames
Codec ID : V_MPEG4/ISO/AVC
Duration : 2 h 12 min
Bit rate mode : Variable
Bit rate : 29.9 Mb/s
Maximum bit rate : 36.0 Mb/s
Width : 1 920 pixels
Height : 1 080 pixels
Display aspect ratio : 16:9
Frame rate mode : Constant
Frame rate : 23.976 (24000/1001) FPS
Standard : NTSC
Color space : YUV
Chroma subsampling : 4:2:0
Bit depth : 8 bits
Scan type : Progressive
Bits/(Pixel*Frame) : 0.602
Stream size : 27.6 GiB (86%)
Title : Be.with.You.2018.KOREAN.1080p.BluRay.REMUX.AVC.DTS-HD.MA.5.1-FGT
Language : English
Default : No
Forced : No
Color range : Limited
Color primaries : BT.709
Transfer characteristics : BT.709
Matrix coefficients : BT.709

Audio #1
ID : 2
Format : DTS XLL
Format/Info : Digital Theater Systems
Commercial name : DTS-HD Master Audio
Codec ID : A_DTS
Duration : 2 h 12 min
Bit rate mode : Variable
Bit rate : 3 049 kb/s
Channel(s) : 6 channels
Channel layout : C L R Ls Rs LFE
Sampling rate : 48.0 kHz
Frame rate : 93.750 FPS (512 SPF)
Bit depth : 24 bits
Compression mode : Lossless
Stream size : 2.81 GiB (9%)
Title : Be.with.You.2018.KOREAN.1080p.BluRay.REMUX.AVC.DTS-HD.MA.5.1-FGT
Language : Korean
Default : Yes
Forced : No

Audio #2
ID : 3
Format : DTS
Format/Info : Digital Theater Systems
Codec ID : A_DTS
Duration : 2 h 12 min
Bit rate mode : Constant
Bit rate : 1 509 kb/s
Channel(s) : 6 channels
Channel layout : C L R Ls Rs LFE
Sampling rate : 48.0 kHz
Frame rate : 93.750 FPS (512 SPF)
Bit depth : 24 bits
Compression mode : Lossy
Stream size : 1.39 GiB (4%)
Title : Be.with.You.2018.KOREAN.1080p.BluRay.REMUX.AVC.DTS-HD.MA.5.1-FGT
Language : Korean
Default : No
Forced : No


 http://imagecurl.com/viewer.p...2668056533129262.png


 http://imagecurl.com/viewer.p...4237750590782256.png


 http://imagecurl.com/viewer.p...8097127.png[/center]
Category:Movies > Remux
Lang:Korean
Total Size:32.01 GB
Info Hash:0800a5c373a5c0c9add33f6a9b36ea9f4b173a4f
Added By:Scene
Date Added:07-12-2018 12:36:07
Downloads:31

Ratings:Not Yet Rated (Log in to rate it)


Tracker:
http://tracker.trackerfix.com:80/announce


File List: 


Comments

No comments still posted

Top
Copyright 2018 DownloadHD -|- Page Generated In 0.304632 secs.
-|- RSS Feed -|- Feed Info