Login
Username:
Password:
[Signup]
[Recover Account]


Browse Torrents

Poll


You must be logged in to view polls



Latest Torrents
FryDay (2018) Hind...
- [Size: 1.15 GB]

Doing.Money.2018.H...
- [Size: 1.26 GB]

Family.Guy.S17E09....
- [Size: 381.71 MB]

Doing.Money.2018.H...
- [Size: 1.26 GB]

Family.Guy.S17E09....
- [Size: 234.33 MB]


Torrent Details For "The Nun (2018) (Dual Audio) {Hindi 5.1 + English 5.1} 720p BluRay x264 AC3 ESub-Sun George"

The Nun (2018) (Dual Audio) {Hindi 5.1 + English 5.1} 720p BluRay x264 AC3 ESub-Sun George

Download this torrent | Magnet Download
Health:
Seeds: 12
Leechers: 56
Completed:
Last Checked: 07-12-2018 13:18:13
External Torrent
Update Stats



Images Host

Poster


iMDB
Title: The Nun
Year: 2018
Runtime: 96 minutes
Language: English
All Genres: Horror, Mystery, Thriller
Tagline: Witness the Darkest Chapter in The Conjuring Universe
Director: Corin Hardy
Writing By: Gary Dauberman,James Wan,Gary Dauberman,
Produced By: Richard Brener,Michael Clear,Gary Dauberman,Walter Hamada,Dave Neustadter,Hans Ritter,Peter Safran,James Wan,Todd Williams,
Music: Abel Korzeniowski
Cast:
Demián Bichir as Father Burke
Taissa Farmiga as Sister Irene
Jonas Bloquet as Frenchie
Bonnie Aarons as The Nun
Ingrid Bisu as Sister Oana
Charlotte Hope as Sister Victoria
Sandra Teles as Sister Ruth
August Maturo as Daniel
Jack Falk as Daniel
Lynnette Gaza as Mother Superior
Trailers:
Teaser Trailer


Watch-Free-HD     Download

Details
Name:The Nun (2018) (Dual Audio) {Hindi 5.1 + English 5.1} 720p BluRay x264 AC3 ESub-Sun George
Description:
The Nun (2018) (Dual Audio) {Hindi 5.1 + English 5.1} 720p BluRay x264 AC3 ESub-Sun George






 



===================================================================

General
Format                                   : Matroska
Format version                           : Version 4 / Version 2
File size                                : 1.46 GiB
Duration                                 : 1 h 36 min
Overall bit rate                         : 2 168 kb/s
Movie name : The Nun (2018) (Dual Audio) {Hindi 5.1 + English 5.1} 720p BluRay x264 AC3 ESub-Sun George

===================================================================

Video
ID                                       : 1
Format                                   : AVC
Format/Info                              : Advanced Video Codec
Format profile                           : [email protected]
Format settings                          : CABAC / 5 Ref Frames
Format settings, CABAC                   : Yes
Format settings, RefFrames               : 5 frames
Codec ID                                 : V_MPEG4/ISO/AVC
Duration                                 : 1 h 36 min
Bit rate                                 : 1 500 kb/s
Width                                    : 1 280 pixels
Height                                   : 544 pixels
Display aspect ratio                     : 2.35:1
Frame rate mode                          : Constant
Frame rate                               : 23.976 (24000/1001) FPS
Color space                              : YUV
Chroma subsampling                       : 4:2:0
Bit depth                                : 8 bits
Scan type                                : Progressive
Bits/(Pixel*Frame)                       : 0.090
Stream size                              : 1.01 GiB (69%)
Title                                    : Sun George

===================================================================

Audio #1
ID                                       : 2
Format                                   : AC-3
Format/Info                              : Audio Coding 3
Codec ID                                 : A_AC3
Duration                                 : 1 h 36 min
Bit rate mode                            : Constant
Bit rate                                 : 448 kb/s
Channel(s)                               : 6 channels
Channel positions                        : Front: L C R, Side: L R, LFE
Sampling rate                            : 48.0 kHz
Frame rate                               : 31.250 FPS (1536 SPF)
Bit depth                                : 16 bits
Compression mode                         : Lossy
Stream size                              : 309 MiB (21%)
Title                                    : Sun George
Language                                 : Hindi
Service kind                             : Complete Main
Default                                  : Yes
Forced                                   : No

===================================================================

Audio #2
ID                                       : 3
Format                                   : AC-3
Format/Info                              : Audio Coding 3
Codec ID                                 : A_AC3
Duration                                 : 1 h 36 min
Bit rate mode                            : Constant
Bit rate                                 : 224 kb/s
Channel(s)                               : 6 channels
Channel positions                        : Front: L C R, Side: L R, LFE
Sampling rate                            : 48.0 kHz
Frame rate                               : 31.250 FPS (1536 SPF)
Bit depth                                : 16 bits
Compression mode                         : Lossy
Delay relative to video                  : 31 ms
Stream size                              : 155 MiB (10%)
Title                                    : Sun George
Language                                 : English
Service kind                             : Complete Main
Default                                  : No
Forced                                   : No

===================================================================

Text
ID                                       : 4
Format                                   : UTF-8
Codec ID                                 : S_TEXT/UTF8
Codec ID/Info                            : UTF-8 Plain Text
Duration                                 : 1 h 35 min
Bit rate                                 : 38 b/s
Count of elements                        : 941
Stream size                              : 27.0 KiB (0%)
Title                                    : Sun George
Language                                 : English
Default                                  : Yes
Forced                                   : Yes




 

 

 

 

 

 

 

 

 

 

 
Category:Movies > Hollywood Dub
Lang:Hindi
Total Size:1.51 GB
Info Hash:5779b526ed669f9a38103e1552e98f36b603f6ce
Added By:sungeorge
Date Added:07-12-2018 13:09:04
Downloads:164

Ratings:Not Yet Rated (Log in to rate it)


Tracker:
udp://tracker.pirateparty.gr:6969/announce

This Torrent also has backup trackers
URLSeedersLeechersCompleted
http://tracker.city9x.com:2710/announce000
http://tracker.fastdownload.xyz:443/announce000
http://retracker.telecom.by:80/announce000
http://seeders-paradise.org:443/announce000
http://share.camoe.cn:8080/announce000


File List: 



NFO:

Comments

No comments still posted

Top
Copyright 2018 DownloadHD -|- Page Generated In 2.436652 secs.
-|- RSS Feed -|- Feed Info