Login
Username:
Password:
[Signup]
[Recover Account]


Browse Torrents

Poll


You must be logged in to view polls



Latest Torrents
Im.A.Celebrity.Ext...
- [Size: 803.35 MB]

Cheleti Abol Tabol...
- [Size: 723.07 MB]

Doing.Money.2018.H...
- [Size: 1.26 GB]

1971 Beyond Border...
- [Size: 688.07 MB]

The.Rachel.Maddow....
- [Size: 870.78 MB]


Torrent Details For "Mowgli Legend of the Jungle 2018 720p HDRip x264 [Telugu + Tamil + Hindi + Eng ] AAC { TaRa }.m..."

Mowgli Legend of the Jungle 2018 720p HDRip x264 [Telugu + Tamil + Hindi + Eng ] AAC { TaRa }.m...

Download this torrent | Magnet Download
Health:
Seeds: 270
Leechers: 391
Completed: 1,197 
Last Checked: 08-12-2018 04:50:09
External Torrent
Update Stats



Images Host

Poster


Watch-Free-HD     Download

Details
Name:Mowgli Legend of the Jungle 2018 720p HDRip x264 [Telugu + Tamil + Hindi + Eng ] AAC { TaRa }.m...
Description:

Mowgli Legend of the Jungle 2018 720p HDRip x264 [Telugu + Tamil + Hindi + Eng ] AAC { TaRa }.mkv
 

Source mv
===================================================================
General
Complete name               : Mowgli Legend of the Jungle 2018 720p HDRip x264 [Telugu + Tamil + Hindi + Eng ] AAC { TaRa }.mkv
Format                      : Matroska
Format version              : Version 4
File size                   : 1.04 GiB
Duration                    : 1 h 44 min
Overall bit rate mode       : Variable
Overall bit rate            : 1 414 kb/s
===================================================================
Video
ID                          : 1
Format                      : AVC
Format/Info                 : Advanced Video Codec
Format profile              : [email protected]
Format settings             : CABAC / 4 Ref Frames
Format settings, CABAC      : Yes
Format settings, ReFrames   : 4 frames
Codec ID                    : V_MPEG4/ISO/AVC
Duration                    : 1 h 44 min
Bit rate                    : 1 088 kb/s
Width                       : 1 280 pixels
Height                      : 536 pixels
Display aspect ratio        : 2.40:1
Frame rate mode             : Constant
Frame rate                  : 23.976 (24000/1001) FPS
Color space                 : YUV
Chroma subsampling          : 4:2:0
Bit depth                   : 8 bits
Scan type                   : Progressive
Bits/(Pixel*Frame)          : 0.066
Stream size                 : 802 MiB (76%)
Title                       : .....::::: TaRa :::::.....
Language                    : English
Default                     : Yes
Forced                      : No
===================================================================
Audio #1
ID                          : 2
Format                      : MPEG Audio
Format version              : Version 1
Format profile              : Layer 3
Format settings             : Joint stereo / MS Stereo
Codec ID                    : A_MPEG/L3
Codec ID/Hint               : MP3
Duration                    : 1 h 44 min
Bit rate mode               : Variable
Bit rate                    : 87.0 kb/s
Nominal bit rate            : 96.0 kb/s
Channel(s)                  : 2 channels
Sampling rate               : 48.0 kHz
Frame rate                  : 41.667 FPS (1152 SPF)
Compression mode            : Lossy
Delay relative to video     : -21 ms
Stream size                 : 65.2 MiB (6%)
Title                       : .....::::: TaRa :::::.....
Writing library             : LAME3.99r
Encoding settings           : -m j -V 4 -q 3 -lowpass 15.1 --abr 96
Language                    : Telugu
Default                     : Yes
Forced                      : No
===================================================================
Audio #2
ID                          : 3
Format                      : MPEG Audio
Format version              : Version 1
Format profile              : Layer 3
Format settings             : Joint stereo / MS Stereo
Codec ID                    : A_MPEG/L3
Codec ID/Hint               : MP3
Duration                    : 1 h 44 min
Bit rate mode               : Variable
Bit rate                    : 86.9 kb/s
Nominal bit rate            : 96.0 kb/s
Channel(s)                  : 2 channels
Sampling rate               : 48.0 kHz
Frame rate                  : 41.667 FPS (1152 SPF)
Compression mode            : Lossy
Delay relative to video     : -21 ms
Stream size                 : 65.2 MiB (6%)
Title                       : .....::::: TaRa :::::.....
Writing library             : LAME3.99r
Encoding settings           : -m j -V 4 -q 3 -lowpass 15.1 --abr 96
Language                    : Tamil
Default                     : No
Forced                      : No
===================================================================
Audio #3
ID                          : 4
Format                      : MPEG Audio
Format version              : Version 1
Format profile              : Layer 3
Format settings             : Joint stereo
Codec ID                    : A_MPEG/L3
Codec ID/Hint               : MP3
Duration                    : 1 h 44 min
Bit rate mode               : Variable
Bit rate                    : 86.5 kb/s
Nominal bit rate            : 96.0 kb/s
Channel(s)                  : 2 channels
Sampling rate               : 48.0 kHz
Frame rate                  : 41.667 FPS (1152 SPF)
Compression mode            : Lossy
Delay relative to video     : -21 ms
Stream size                 : 64.9 MiB (6%)
Title                       : .....::::: TaRa :::::.....
Writing library             : LAME3.99r
Encoding settings           : -m j -V 4 -q 3 -lowpass 15.1 --abr 96
Language                    : Hindi
Default                     : No
Forced                      : No
===================================================================
Audio #4
ID                          : 5
Format                      : AAC LC
Format/Info                 : Advanced Audio Codec Low Complexity
Codec ID                    : A_AAC-2
Duration                    : 1 h 44 min
Bit rate                    : 79.8 kb/s
Channel(s)                  : 2 channels
Channel layout              : L R
Sampling rate               : 48.0 kHz
Frame rate                  : 46.875 FPS (1024 SPF)
Compression mode            : Lossy
Stream size                 : 59.9 MiB (6%)
Title                       : .....::::: TaRa :::::.....
Language                    : English
Default                     : No
Forced                      : No
===================================================================


 
 
 
 
 
 
 
 
 
 
 
 












 



Category:Movies > Hollywood Dub
Lang:English  English
Total Size:1.04 GB
Info Hash:fdf4ae891e36b56e2caeaf228d652112944d0303
Added By:SkTaRa
Date Added:07-12-2018 14:40:31
Downloads:251

Ratings:Not Yet Rated (Log in to rate it)


Tracker:
udp://tracker.coppersurfer.tk:6969/announce


File List: 


Comments

No comments still posted

Top
Copyright 2018 DownloadHD -|- Page Generated In 3.092905 secs.
-|- RSS Feed -|- Feed Info