Login
Username:
Password:
[Signup]
[Recover Account]


Browse Torrents

Poll


You must be logged in to view polls



Latest Torrents
Helicopter Eela.20...
- [Size: 1.50 GB]

My.Lottery.Dream.H...
- [Size: 180.29 MB]

Tanked.S15E08.A.Me...
- [Size: 346.56 MB]

The.Protector.2018...
- [Size: 13.79 GB]

Gold.Rush.S09E10.7...
- [Size: 1.42 GB]


Torrent Details For "Mowgli Legend of the Jungle (2018) Hindi 720p WEB-Rip x264 AAC DD5.1 - MSUBS ~ Ranvijay"

Mowgli Legend of the Jungle (2018) Hindi 720p WEB-Rip x264 AAC DD5.1 - MSUBS ~ Ranvijay

Download this torrent | Magnet Download
Health:
Seeds: 42
Leechers: 189
Completed: 73 
Last Checked: 07-12-2018 19:00:19
External Torrent
Update Stats



Images Host

Poster


iMDB
Original Title: Mowgli
Title: Mowgli: Legend of the Jungle
Year: 2018
Votes: 218
Rating: 7.7/10
Language: English
Tagline: Outcast. Survivor. Legend.
Director: Andy Serkis
Writing By: Callie Kloves,Rudyard Kipling,
Produced By: David Barron,Jonathan Cavendish,Steve Kloves,Nikki Penny,
Music: Nitin Sawhney
Cast:
Christian Bale as Bagheera
Cate Blanchett as Kaa
Benedict Cumberbatch as Shere Khan
Naomie Harris as Nisha
Andy Serkis as Baloo
Peter Mullan as Akela
Jack Reynor as Brother Wolf
Eddie Marsan as Vihaan
Tom Hollander as Tabaqui
Matthew Rhys as Lockwood
Trailers:
Official Trailer #2
Official Trailer


Watch-Free-HD     Download

Details
Name:Mowgli Legend of the Jungle (2018) Hindi 720p WEB-Rip x264 AAC DD5.1 - MSUBS ~ Ranvijay
Description:




 

Mowgli Legend of the Jungle (2018) Hindi 720p WEB-Rip x264 AAC DD5.1 - MSUBS ~ Ranvijay

Thanks To Hammer For Hindi Audio

Buy RDP Online

 


Format                                   : Matroska
Format version                           : Version 4 / Version 2
File size                                : 1.26 GiB
Duration                                 : 1 h 44 min
Overall bit rate                         : 1 722 kb/s
Movie name                               : Mowgli Legend of the Jungle (2018) Hindi 720p WEB-Rip x264 AAC DD5.1 - MSUBS ~ Ranvijay

Video
ID                                       : 1
Format                                   : AVC
Format/Info                              : Advanced Video Codec
Duration                                 : 1 h 44 min
Bit rate                                 : 1 500 kb/s
Width                                    : 1 280 pixels
Height                                   : 536 pixels
Display aspect ratio                     : 2.40:1
Frame rate mode                          : Constant
Frame rate                               : 23.976 (24000/1001) FPS
Color space                              : YUV
Chroma subsampling                       : 4:2:0
Bit depth                                : 8 bits
Scan type                                : Progressive
Bits/(Pixel*Frame)                       : 0.091
Stream size                              : 1.10 GiB (87%)
Title                                    : ~Ranvijay~

Audio
ID                                       : 2
Format                                   : AAC
Format/Info                              : Advanced Audio Codec
Format profile                           : LC
Codec ID                                 : A_AAC-2
Duration                                 : 1 h 44 min
Bit rate                                 : 220 kb/s
Channel(s)                               : 6 channels
Channel positions                        : Front: L C R, Side: L R, LFE
Sampling rate                            : 48.0 kHz
Frame rate                               : 46.875 FPS (1024 SPF)
Compression mode                         : Lossy
Delay relative to video                  : 9 ms
Stream size                              : 165 MiB (13%)
Title                                    : ~Ranvijay~
Language                                 : Hindi
Default                                  : Yes
Forced                                   : Yes

Text #1
ID                                       : 3
Format                                   : UTF-8
Codec ID                                 : S_TEXT/UTF8
Codec ID/Info                            : UTF-8 Plain Text
Duration                                 : 7 min 50 s
Bit rate                                 : 4 b/s
Count of elements                        : 11
Stream size                              : 251 Bytes (0%)
Title                                    : English [Forced]
Language                                 : English
Default                                  : No
Forced                                   : No

Text #2
ID                                       : 4
Format                                   : UTF-8
Codec ID                                 : S_TEXT/UTF8
Codec ID/Info                            : UTF-8 Plain Text
Duration                                 : 1 h 34 min
Bit rate                                 : 24 b/s
Count of elements                        : 706
Stream size                              : 17.3 KiB (0%)
Title                                    : English [Full]
Language                                 : English
Default                                  : Yes
Forced                                   : Yes

Text #3
ID                                       : 5
Format                                   : UTF-8
Codec ID                                 : S_TEXT/UTF8
Codec ID/Info                            : UTF-8 Plain Text
Duration                                 : 1 h 43 min
Bit rate                                 : 38 b/s
Count of elements                        : 1262
Stream size                              : 28.9 KiB (0%)
Title                                    : English [SDH]
Language                                 : English
Default                                  : No
Forced                                   : No

Text #4
ID                                       : 6
Format                                   : UTF-8
Codec ID                                 : S_TEXT/UTF8
Codec ID/Info                            : UTF-8 Plain Text
Duration                                 : 7 min 59 s
Bit rate                                 : 3 b/s
Count of elements                        : 2
Stream size                              : 184 Bytes (0%)
Title                                    : Hindi [Forced]
Language                                 : Hindi
Default                                  : No
Forced                                   : Yes

Text #5
ID                                       : 7
Format                                   : UTF-8
Codec ID                                 : S_TEXT/UTF8
Codec ID/Info                            : UTF-8 Plain Text
Duration                                 : 1 h 43 min
Bit rate                                 : 57 b/s
Count of elements                        : 704
Stream size                              : 43.3 KiB (0%)
Title                                    : Hindi [Full]
Language                                 : Hindi
Default                                  : No
Forced                                   : No


 
 
 
 
 
 
 
 


Don't walk as you are king, walk as you don't care who the king is....!!

 [/b]

Category:Movies > Hollywood Dub
Lang:Hindi
Total Size:1.28 GB
Info Hash:ac5d42863bfd204ca039ee30577ceeba1d081af4
Added By:ranvijay1234
Date Added:07-12-2018 15:20:55
Downloads:360

Ratings:Not Yet Rated (Log in to rate it)


Tracker:
udp://tracker.pirateparty.gr:6969/announce

This Torrent also has backup trackers
URLSeedersLeechersCompleted
http://tracker.fastdownload.xyz:443/announce000
http://seeders-paradise.org:443/announce000
http://share.camoe.cn:8080/announce000


File List: 


Comments

No comments still posted

Top
Copyright 2018 DownloadHD -|- Page Generated In 2.079869 secs.
-|- RSS Feed -|- Feed Info